#TITLE:PARADISE GIRL MADORIN;
#SUBTITLE:;
#ARTIST:djSHARPNEL;
#TITLETRANSLIT:;
#SUBTITLETRANSLIT:;
#ARTISTTRANSLIT:;
#CREDIT:;
#BANNER:Madorin-BN.jpg;
#BACKGROUND:Madorin-BG.jpg;
#LYRICSPATH:;
#CDTITLE:!cattitle.png;
#MUSIC:Paradise Girl Madorin.mp3;
#OFFSET:-4.533;
#SAMPLESTART:36.079;
#SAMPLELENGTH:12.000;
#SELECTABLE:YES;
#BPMS:0.000=190.100,95.000=380.200,97.000=190.100,351.000=47.525,352.000=95.050,360.000=190.100;
#STOPS:64.500=4.734
,222.500=0.947
;
#BGCHANGES:;
// cache tags:
#FIRSTBEAT:0.000;
#LASTBEAT:352.000;
#SONGFILENAME:Songs/Music V.I.P ^_^/cat_madorin/Madorin.sm;
#HASMUSIC:1;
#HASBANNER:1;
#MUSICLENGTH:133.545;
// end cache tags

//---------------dance-single - ----------------
#NOTES:
     dance-single:
     :
     Hard:
     11:
     1.000,1.000,0.434,0.045,1.000,1110.000,58.000,6.000,0.000,0.000:
1000
0010
0100
0001
0000
1000
0010
0100
0001
1000
0001
0010
0100
1000
0010
0000
,
1000
0001
0100
0010
0000
1000
0010
0100
0001
0100
0010
1000
0001
0100
0010
0000
,
0001
0100
0010
1000
0000
0001
0100
0010
1000
0001
1000
0100
0010
0001
0100
0000
,
0001
1000
0010
0100
0000
0001
0100
0010
1000
0010
0100
0001
1000
0010
0100
0000
,
1000
0010
0100
0001
0000
1000
0010
0100
0001
1000
0010
0100
0001
1000
0010
0000
,
1000
0001
0100
0010
0000
1000
0010
0100
0001
0010
0100
1000
0010
0100
0001
0000
,
1000
0001
0100
0010
0000
0100
0010
1000
0100
1000
0001
0100
0010
1000
0100
0000
,
0001
0100
0010
0100
0000
1000
0010
0100
0001
1000
0010
0100
0010
1000
0100
0000
,
1000
0001
0100
0001
0000
0010
1000
0010
0100
0001
1000
0010
0100
0001
0010
0000
,
0001
0100
0001
1000
0000
0001
1000
0010
0100
0001
1000
0001
0100
0010
1000
0000
,
1000
0001
0100
0010
0000
1000
0001
0100
0010
1000
0001
0100
0001
1000
0100
0000
,
0001
0100
0010
1000
0001
0100
0010
1000
0001
0100
0001
1000
0010
0100
0010
0000
,
1000
0001
0100
0010
0000
1000
0010
1000
0001
0100
0001
1000
0010
0100
0001
0000
,
1000
0001
0100
0001
1000
0001
0100
0010
1000
0010
0100
0010
1000
0001
0100
0010
,
1000
0001
1000
0010
1000
0001
1000
0010
0100
0001
1000
0010
0100
0001
1000
0010
,
2001
0000
0000
0000
0001
0000
0000
0000
0001
0000
0000
0000
0001
0000
0000
3000
,
1001
0000
0000
0000
1000
0001
0100
0010
1000
0001
0100
0010
1000
0010
0100
0001
,
1000
0100
1000
0010
0100
0001
0010
0001
1000
0010
0100
0001
1000
0010
0100
0001
,
1000
0010
0100
0001
0100
0010
1000
0010
0100
0001
1000
0010
0100
0001
1000
0100
,
1000
0010
0100
0001
0010
0001
0100
0010
1000
0010
1000
0010
0100
0001
1000
0010
,
0100
0001
1000
0010
0100
0001
0100
0010
1000
0001
0100
0010
0100
0001
1000
0010
,
0100
0010
1000
0010
0100
0010
1000
0010
0100
0001
1000
0100
0010
0100
1000
0001
,
0100
0010
0100
0001
1000
0010
0100
0001
1000
0010
1000
0010
0100
0001
0010
0001
,
1000
0010
0100
0010
1001
0000
0000
0000
0100
0000
1000
0000
0020
0000
0000
0000
,
0000
0000
0000
0000
0230
0000
0302
0000
1003
0010
0100
0001
0100
0010
1000
0001
,
0100
0010
0100
0001
1000
0010
0100
0010
1000
0100
0010
0100
1000
0001
0010
0100
,
0010
0001
0010
0001
0100
0010
1000
0100
1000
0010
1000
0010
0100
0001
0010
0001
,
0100
0001
1000
0010
1000
0100
1000
0010
0100
0001
1000
0010
0100
0001
1000
0010
,
0100
0001
0100
0010
1000
0100
0010
0001
0100
0010
1000
0001
0010
0100
1000
0010
,
0100
0001
0100
0010
0100
0001
1000
0010
0100
0010
1000
0100
0010
0100
1000
0001
,
0010
0100
0010
0001
1000
0010
0100
0001
0010
0100
1000
0010
0100
0001
0100
0010
,
1000
0001
0100
0010
1000
0001
0010
0100
1000
0001
0100
0010
1000
0100
0010
0001
,
1000
0010
0100
0010
1000
0001
0100
0010
1001
0100
0010
1000
0010
0100
0001
0010
,
0001
0100
0010
1000
0100
1000
0010
0100
0001
1000
0010
0100
0001
0100
0010
1000
,
0010
0100
0001
1000
0100
0010
0100
0010
1001
0100
0010
1000
0001
0100
0010
0100
,
0001
1000
0010
0100
0001
1000
0010
1000
0010
0100
0001
0010
0001
0100
0010
1000
,
0010
0100
0001
1000
0010
0100
0010
0100
1001
0010
0100
0001
1000
0010
0100
0001
,
0100
0010
1000
0010
0100
0001
0100
0010
0100
0001
1000
0010
0100
0010
1000
0010
,
0100
0001
1000
0010
0100
0001
0100
0010
1001
0100
0001
1000
0010
0100
0001
1000
,
0010
0100
0001
0100
0010
1000
0010
1000
0001
0100
0001
0010
0001
1000
0010
0100
,
0001
1000
0010
0100
0001
0100
0010
0100
1001
0000
0000
0000
1001
0000
0000
0000
,
1001
0000
0000
0000
1001
0000
0000
0000
1000
0010
0100
0001
0100
0000
1000
0010
,
0000
0001
1000
0010
0100
0000
1001
0000
0110
0000
0000
0000
0110
0000
0000
0000
,
0110
0000
0000
0000
0110
0000
0000
0000
1000
0001
0100
0010
1000
0000
0001
0100
,
0000
1000
0010
0100
0001
0000
0110
0000
1001
0000
0000
0000
1001
0000
0000
0000
,
1001
0000
0000
0000
1001
0000
0000
0000
1000
0010
0100
0010
1000
0000
0001
0100
,
0000
0010
1000
0001
0100
0000
1001
0000
0110
0000
0000
0000
0110
0000
0000
0000
,
0110
0000
0000
0000
0110
0000
0000
0000
1000
0010
0100
0001
1000
0000
0001
0100
,
0000
0010
1000
0001
0100
0010
0100
0010
1001
0100
0010
1000
0001
0100
0010
1000
,
0100
1000
0010
0100
0001
0010
0001
0100
0010
1000
0010
0100
0001
0100
0010
1000
,
0010
0100
0001
1000
0001
0100
0001
0010
0001
1000
0010
1000
0100
1000
0010
0100
,
0001
1000
0010
0100
0001
0010
0001
0100
0010
0100
0001
1000
0010
0100
0010
1000
,
0010
0100
0001
1000
0100
0010
0100
1000
0001
0010
0100
0010
0001
0010
0100
1000
,
0010
0100
0010
1000
0100
0010
0001
0100
0010
0100
0001
1000
0010
0100
0001
1000
,
0010
0100
0001
0100
0010
1000
0010
0100
0001
0010
0001
0100
0010
1000
0100
1000
,
0010
0100
0001
1000
0010
0100
0001
0010
1001
0000
0000
0000
1000
0000
0000
0000
,
0010
0000
0000
0000
0100
0000
0000
0000
0000
0000
1000
0010
0000
0010
0100
0000
,
0001
0000
0010
0000
0100
0000
0000
0100
0000
0000
0100
0000
1000
0000
0000
0000
,
0010
0000
0000
0000
0100
0000
0000
0000
0000
0000
0001
0100
0000
0100
0010
0000
,
1000
0000
0010
0000
0100
0000
0000
0100
0000
0000
0100
0000
0001
0000
0000
0000
,
0100
0000
0000
0000
0010
0000
0000
0000
0000
0000
0001
0100
0000
0100
0010
0000
,
1000
0000
0100
0000
0010
0000
0000
0010
0000
0000
0010
0000
0001
0000
0000
0000
,
0100
0000
0000
0000
0010
0000
0000
0000
0000
0000
1000
0010
0000
0010
0100
1000
,
0001
0100
0001
1000
0010
0100
1001
0100
,
0010
1000
0001
0100
0010
1000
0100
0001
,
0100
1000
0010
0100
0001
0010
0100
1000
,
0010
0100
0001
1000
0100
0010
0001
0100
,
0010
0000
1000
0000
0010
0000
0100
1000
0001
0000
1000
0000
0001
0000
0100
0000
,
0010
1000
0001
0100
0010
0100
0001
1000
,
0010
0100
0010
1000
0010
0100
0001
0010
,
0100
0010
0001
1000
0100
0010
0100
0000
,
0000
0000
0000
0000
0000
0000
0000
0000
0010
0000
0100
0000
1001
0100
0010
1000
,
0001
0100
0010
1000
0100
1000
0010
0100
0001
0010
0001
0100
0001
1000
0010
1000
,
0100
1000
0010
0100
0001
0100
0010
1000
0010
0100
0010
1000
0001
0100
0010
0100
,
0001
1000
0010
0100
0001
0100
0010
1000
0010
0100
0010
1000
0001
0100
0010
0100
,
0001
1000
0010
0100
0001
0100
0010
1000
0100
0010
0100
1000
0001
0010
0100
0010
,
0001
0100
0010
0100
0010
1000
0100
1000
0010
0100
0001
1000
0010
0100
0001
1000
,
0010
0100
0001
0100
0010
1000
0100
0010
0001
0100
0010
1000
0001
0010
0100
1000
,
0010
0100
0001
1000
0010
0100
0001
1000
0001
0100
0010
1000
0010
0100
0001
1000
,
0010
0100
0001
0010
0001
0100
0010
1000
0100
1000
0010
0100
1001
0000
0010
0000
,
1001
0010
1001
0010
1001
0010
0101
0010
,
0101
0000
0010
0000
0101
0000
0010
0000
0101
0000
0011
0100
1010
0000
0100
0000
,
1010
0100
1010
0100
1010
0010
1001
0010
,
1001
0000
0010
0000
1001
0000
0010
0000
1001
0000
0011
0100
1001
0100
0010
1000
,
0001
0100
0010
1000
0010
0100
0001
1000
0010
0100
0001
0010
0001
1000
0010
0100
,
0001
1000
0010
0100
0001
1000
0010
0100
0001
1000
0010
0100
1001
0010
0100
0001
,
1010
0100
0001
1000
0101
1000
0010
0100
1001
0100
0010
1000
0101
0010
1000
0001
,
1010
0100
0001
0010
1001
0100
0010
1000
0101
0010
1000
0010
2002
0000
0000
0000
,
3003
0000
0000
0000
;
